  0
SECTION
  2
HEADER
  9
$ACADVER
  1
AC1014
  9
$ACADMAINTVER
 70
     9
  9
$DWGCODEPAGE
  3
ANSI_1252
  9
$INSBASE
 10
0.0
 20
0.0
 30
0.0
  9
$EXTMIN
 10
-1198.743637105473
 20
-548.5588889732119
 30
0.0
  9
$EXTMAX
 10
-1189.33392736131
 20
-544.1457451387792
 30
0.0
  9
$LIMMIN
 10
0.0
 20
0.0
  9
$LIMMAX
 10
12.0
 20
9.0
  9
$ORTHOMODE
 70
     0
  9
$REGENMODE
 70
     1
  9
$FILLMODE
 70
     1
  9
$QTEXTMODE
 70
     0
  9
$MIRRTEXT
 70
     1
  9
$DRAGMODE
 70
     2
  9
$LTSCALE
 40
1.0
  9
$OSMODE
 70
     0
  9
$ATTMODE
 70
     1
  9
$TEXTSIZE
 40
0.2
  9
$TRACEWID
 40
0.05
  9
$TEXTSTYLE
  7
STANDARD
  9
$CLAYER
  8
0
  9
$CELTYPE
  6
BYLAYER
  9
$CECOLOR
 62
   256
  9
$CELTSCALE
 40
1.0
  9
$DELOBJ
 70
     1
  9
$DISPSILH
 70
     0
  9
$DIMSCALE
 40
1.0
  9
$DIMASZ
 40
0.18
  9
$DIMEXO
 40
0.0625
  9
$DIMDLI
 40
0.38
  9
$DIMRND
 40
0.0
  9
$DIMDLE
 40
0.0
  9
$DIMEXE
 40
0.18
  9
$DIMTP
 40
0.0
  9
$DIMTM
 40
0.0
  9
$DIMTXT
 40
0.18
  9
$DIMCEN
 40
0.09
  9
$DIMTSZ
 40
0.0
  9
$DIMTOL
 70
     0
  9
$DIMLIM
 70
     0
  9
$DIMTIH
 70
     1
  9
$DIMTOH
 70
     1
  9
$DIMSE1
 70
     0
  9
$DIMSE2
 70
     0
  9
$DIMTAD
 70
     0
  9
$DIMZIN
 70
     0
  9
$DIMBLK
  1

  9
$DIMASO
 70
     1
  9
$DIMSHO
 70
     1
  9
$DIMPOST
  1

  9
$DIMAPOST
  1

  9
$DIMALT
 70
     0
  9
$DIMALTD
 70
     2
  9
$DIMALTF
 40
25.4
  9
$DIMLFAC
 40
1.0
  9
$DIMTOFL
 70
     0
  9
$DIMTVP
 40
0.0
  9
$DIMTIX
 70
     0
  9
$DIMSOXD
 70
     0
  9
$DIMSAH
 70
     0
  9
$DIMBLK1
  1

  9
$DIMBLK2
  1

  9
$DIMSTYLE
  2
STANDARD
  9
$DIMCLRD
 70
     0
  9
$DIMCLRE
 70
     0
  9
$DIMCLRT
 70
     0
  9
$DIMTFAC
 40
1.0
  9
$DIMGAP
 40
0.09
  9
$DIMJUST
 70
     0
  9
$DIMSD1
 70
     0
  9
$DIMSD2
 70
     0
  9
$DIMTOLJ
 70
     1
  9
$DIMTZIN
 70
     0
  9
$DIMALTZ
 70
     0
  9
$DIMALTTZ
 70
     0
  9
$DIMFIT
 70
     3
  9
$DIMUPT
 70
     0
  9
$DIMUNIT
 70
     2
  9
$DIMDEC
 70
     2
  9
$DIMTDEC
 70
     2
  9
$DIMALTU
 70
     2
  9
$DIMALTTD
 70
     2
  9
$DIMTXSTY
  7
STANDARD
  9
$DIMAUNIT
 70
     0
  9
$LUNITS
 70
     2
  9
$LUPREC
 70
     4
  9
$SKETCHINC
 40
0.1
  9
$FILLETRAD
 40
0.5
  9
$AUNITS
 70
     0
  9
$AUPREC
 70
     0
  9
$MENU
  1
.
  9
$ELEVATION
 40
0.0
  9
$PELEVATION
 40
0.0
  9
$THICKNESS
 40
0.0
  9
$LIMCHECK
 70
     0
  9
$BLIPMODE
 70
     0
  9
$CHAMFERA
 40
0.5
  9
$CHAMFERB
 40
0.5
  9
$CHAMFERC
 40
1.0
  9
$CHAMFERD
 40
0.0
  9
$SKPOLY
 70
     0
  9
$TDCREATE
 40
2452181.632322453
  9
$TDUPDATE
 40
2452643.321100463
  9
$TDINDWG
 40
0.0015937500
  9
$TDUSRTIMER
 40
0.0015937500
  9
$USRTIMER
 70
     1
  9
$ANGBASE
 50
0.0
  9
$ANGDIR
 70
     0
  9
$PDMODE
 70
     0
  9
$PDSIZE
 40
0.0
  9
$PLINEWID
 40
0.0
  9
$COORDS
 70
     1
  9
$SPLFRAME
 70
     0
  9
$SPLINETYPE
 70
     6
  9
$SPLINESEGS
 70
     8
  9
$ATTDIA
 70
     1
  9
$ATTREQ
 70
     1
  9
$HANDLING
 70
-16383
  9
$HANDSEED
  5
3A0
  9
$SURFTAB1
 70
     6
  9
$SURFTAB2
 70
     6
  9
$SURFTYPE
 70
     6
  9
$SURFU
 70
     6
  9
$SURFV
 70
     6
  9
$UCSNAME
  2

  9
$UCSORG
 10
0.0
 20
0.0
 30
0.0
  9
$UCSXDIR
 10
1.0
 20
0.0
 30
0.0
  9
$UCSYDIR
 10
0.0
 20
1.0
 30
0.0
  9
$PUCSNAME
  2

  9
$PUCSORG
 10
0.0
 20
0.0
 30
0.0
  9
$PUCSXDIR
 10
1.0
 20
0.0
 30
0.0
  9
$PUCSYDIR
 10
0.0
 20
1.0
 30
0.0
  9
$USERI1
 70
     0
  9
$USERI2
 70
     0
  9
$USERI3
 70
     0
  9
$USERI4
 70
     0
  9
$USERI5
 70
     0
  9
$USERR1
 40
0.0
  9
$USERR2
 40
0.0
  9
$USERR3
 40
0.0
  9
$USERR4
 40
0.0
  9
$USERR5
 40
0.0
  9
$WORLDVIEW
 70
     1
  9
$SHADEDGE
 70
     3
  9
$SHADEDIF
 70
    70
  9
$TILEMODE
 70
     1
  9
$MAXACTVP
 70
    64
  9
$PINSBASE
 10
0.0
 20
0.0
 30
0.0
  9
$PLIMCHECK
 70
     0
  9
$PEXTMIN
 10
1.000000000000000E+20
 20
1.000000000000000E+20
 30
1.000000000000000E+20
  9
$PEXTMAX
 10
-1.000000000000000E+20
 20
-1.000000000000000E+20
 30
-1.000000000000000E+20
  9
$PLIMMIN
 10
0.0
 20
0.0
  9
$PLIMMAX
 10
12.0
 20
9.0
  9
$UNITMODE
 70
     0
  9
$VISRETAIN
 70
     1
  9
$PLINEGEN
 70
     0
  9
$PSLTSCALE
 70
     1
  9
$TREEDEPTH
 70
  3020
  9
$PICKSTYLE
 70
     1
  9
$CMLSTYLE
  2
STANDARD
  9
$CMLJUST
 70
     0
  9
$CMLSCALE
 40
1.0
  9
$PROXYGRAPHICS
 70
     1
  9
$MEASUREMENT
 70
     0
  0
ENDSEC
  0
SECTION
  2
CLASSES
  0
CLASS
  1
ACDBDICTIONARYWDFLT
  2
AcDbDictionaryWithDefault
  3
AutoCAD 2000
 90
        0
280
     0
281
     0
  0
CLASS
  1
ACDBPLACEHOLDER
  2
AcDbPlaceHolder
  3
AutoCAD 2000
 90
        0
280
     0
281
     0
  0
CLASS
  1
LAYOUT
  2
AcDbLayout
  3
AutoCAD 2000
 90
        0
280
     0
281
     0
  0
CLASS
  1
LONG_TRANSACTION
  2
AcDbLongTransaction
  3
AutoCAD 2000
 90
        0
280
     0
281
     0
  0
CLASS
  1
LWPOLYLINE
  2
AcDbPolyline
  3
AutoCAD 2000
 90
        0
280
     0
281
     1
  0
CLASS
  1
HATCH
  2
AcDbHatch
  3
AutoCAD 2000
 90
        0
280
     0
281
     1
  0
CLASS
  1
XRECORD
  2
AcDbXrecord
  3
AutoCAD 2000
 90
        0
280
     0
281
     0
  0
ENDSEC
  0
SECTION
  2
TABLES
  0
TABLE
  2
VPORT
  5
8
330
0
100
AcDbSymbolTable
 70
     3
  0
VPORT
  5
379
330
8
100
AcDbSymbolTableRecord
100
AcDbViewportTableRecord
  2
*ACTIVE
 70
     0
 10
0.0
 20
0.0
 11
1.0
 21
1.0
 12
-1193.712727740051
 22
-546.9710276378057
 13
0.0
 23
0.0
 14
0.5
 24
0.5
 15
0.5
 25
0.5
 16
0.0
 26
0.0
 36
1.0
 17
0.0
 27
0.0
 37
0.0
 40
8.064163416122823
 41
1.462515883100381
 42
50.0
 43
0.0
 44
0.0
 50
0.0
 51
0.0
 71
     0
 72
   100
 73
     1
 74
     3
 75
     0
 76
     0
 77
     0
 78
     0
  0
ENDTAB
  0
TABLE
  2
LTYPE
  5
5
330
0
100
AcDbSymbolTable
 70
     1
  0
LTYPE
  5
14
330
5
100
AcDbSymbolTableRecord
100
AcDbLinetypeTableRecord
  2
BYBLOCK
 70
     0
  3

 72
    65
 73
     0
 40
0.0
  0
LTYPE
  5
15
330
5
100
AcDbSymbolTableRecord
100
AcDbLinetypeTableRecord
  2
BYLAYER
 70
     0
  3

 72
    65
 73
     0
 40
0.0
  0
LTYPE
  5
16
330
5
100
AcDbSymbolTableRecord
100
AcDbLinetypeTableRecord
  2
CONTINUOUS
 70
     0
  3
Solid line
 72
    65
 73
     0
 40
0.0
  0
ENDTAB
  0
TABLE
  2
LAYER
  5
2
330
0
100
AcDbSymbolTable
 70
     4
  0
LAYER
  5
10
330
2
100
AcDbSymbolTableRecord
100
AcDbLayerTableRecord
  2
0
 70
     0
 62
     7
  6
CONTINUOUS
  0
LAYER
  5
34
330
2
100
AcDbSymbolTableRecord
100
AcDbLayerTableRecord
  2
L
 70
     0
 62
     7
  6
CONTINUOUS
  0
LAYER
  5
45
330
2
100
AcDbSymbolTableRecord
100
AcDbLayerTableRecord
  2
DEFPOINTS
 70
     0
 62
     7
  6
CONTINUOUS
  0
LAYER
  5
88
330
2
100
AcDbSymbolTableRecord
100
AcDbLayerTableRecord
  2
TX
 70
     0
 62
   150
  6
CONTINUOUS
  0
ENDTAB
  0
TABLE
  2
STYLE
  5
3
330
0
100
AcDbSymbolTable
 70
     3
  0
STYLE
  5
11
330
3
100
AcDbSymbolTableRecord
100
AcDbTextStyleTableRecord
  2
STANDARD
 70
     0
 40
0.0
 41
1.0
 50
0.0
 71
     0
 42
0.2
  3
txt
  4

  0
STYLE
  5
35
330
3
100
AcDbSymbolTableRecord
100
AcDbTextStyleTableRecord
  2
REG
 70
     0
 40
0.0
 41
1.0
 50
0.0
 71
     0
 42
0.09375
  3
E:\R13\com\fonts\ARCHITXT.SHX
  4

  0
STYLE
  5
36
330
3
100
AcDbSymbolTableRecord
100
AcDbTextStyleTableRecord
  2
DIMTXT
 70
     0
 40
0.0
 41
1.0
 50
0.0
 71
     0
 42
1.125
  3
archt.shx
  4

  0
ENDTAB
  0
TABLE
  2
VIEW
  5
6
330
0
100
AcDbSymbolTable
 70
     0
  0
ENDTAB
  0
TABLE
  2
UCS
  5
7
330
0
100
AcDbSymbolTable
 70
     0
  0
ENDTAB
  0
TABLE
  2
APPID
  5
9
330
0
100
AcDbSymbolTable
 70
     1
  0
APPID
  5
12
330
9
100
AcDbSymbolTableRecord
100
AcDbRegAppTableRecord
  2
ACAD
 70
     0
  0
ENDTAB
  0
TABLE
  2
DIMSTYLE
  5
A
330
0
100
AcDbSymbolTable
 70
     6
  0
DIMSTYLE
105
27
102
{ACAD_REACTORS
330
CD
330
DB
102
}
330
A
100
AcDbSymbolTableRecord
100
AcDbDimStyleTableRecord
  2
STANDARD
 70
     0
  3

  4

  5

  6

  7

 40
1.0
 41
0.18
 42
0.0625
 43
0.38
 44
0.18
 45
0.0
 46
0.0
 47
0.0
 48
0.0
140
0.18
141
0.09
142
0.0
143
25.4
144
1.0
145
0.0
146
1.0
147
0.09
 71
     0
 72
     0
 73
     1
 74
     1
 75
     0
 76
     0
 77
     0
 78
     0
170
     0
171
     2
172
     0
173
     0
174
     0
175
     0
176
     0
177
     0
178
     0
270
     2
271
     2
272
     2
273
     2
274
     2
340
11
275
     0
280
     0
281
     0
282
     0
283
     1
284
     0
285
     0
286
     0
287
     3
288
     0
  0
DIMSTYLE
105
37
330
A
100
AcDbSymbolTableRecord
100
AcDbDimStyleTableRecord
  2
1
 70
     0
  3

  4

  5

  6

  7

 40
1.0
 41
1.125
 42
0.5
 43
0.375
 44
1.19921875
 45
0.0
 46
0.5
 47
0.0
 48
0.0
140
1.125
141
0.125
142
0.0
143
25.4
144
1.0
145
0.0
146
0.8
147
0.5625
 71
     0
 72
     0
 73
     0
 74
     0
 75
     0
 76
     0
 77
     1
 78
     3
170
     0
171
     2
172
     1
173
     0
174
     1
175
     0
176
   133
177
   133
178
   150
270
     2
271
     3
272
     3
273
     2
274
     2
340
36
275
     0
280
     0
281
     0
282
     0
283
     1
284
     0
285
     0
286
     0
287
     4
288
     0
  0
DIMSTYLE
105
38
330
A
100
AcDbSymbolTableRecord
100
AcDbDimStyleTableRecord
  2
1$2
 70
     0
  3

  4

  5
DOTSMALL
  6

  7

 40
1.0
 41
1.5
 42
0.5
 43
0.375
 44
1.19921875
 45
0.0
 46
0.5
 47
0.0
 48
0.0
140
0.75
141
0.125
142
0.0
143
25.4
144
1.0
145
0.0
146
0.8
147
0.5625
 71
     0
 72
     0
 73
     0
 74
     0
 75
     0
 76
     0
 77
     1
 78
     3
170
     0
171
     2
172
     1
173
     0
174
     1
175
     0
176
   133
177
   133
178
   150
270
     2
271
     3
272
     3
273
     2
274
     2
340
36
275
     0
280
     0
281
     0
282
     0
283
     1
284
     0
285
     0
286
     0
287
     4
288
     0
  0
DIMSTYLE
105
39
330
A
100
AcDbSymbolTableRecord
100
AcDbDimStyleTableRecord
  2
1$4
 70
     0
  3

  4

  5

  6

  7
DOTSMALL
 40
1.0
 41
1.5
 42
0.5
 43
0.375
 44
1.19921875
 45
0.0
 46
0.5
 47
0.0
 48
0.0
140
0.75
141
0.125
142
0.0
143
25.4
144
1.0
145
0.0
146
0.8
147
0.5625
 71
     0
 72
     0
 73
     0
 74
     0
 75
     0
 76
     0
 77
     1
 78
     3
170
     0
171
     2
172
     1
173
     1
174
     1
175
     0
176
   133
177
   133
178
   150
270
     2
271
     3
272
     3
273
     2
274
     2
340
36
275
     0
280
     0
281
     0
282
     0
283
     1
284
     0
285
     0
286
     0
287
     4
288
     0
  0
DIMSTYLE
105
3A
330
A
100
AcDbSymbolTableRecord
100
AcDbDimStyleTableRecord
  2
1$3
 70
     0
  3

  4

  5
DOTSMALL
  6

  7

 40
1.0
 41
1.5
 42
0.5
 43
0.375
 44
1.19921875
 45
0.0
 46
0.5
 47
0.0
 48
0.0
140
0.75
141
0.125
142
0.0
143
25.4
144
1.0
145
0.0
146
0.8
147
0.5625
 71
     0
 72
     0
 73
     0
 74
     0
 75
     0
 76
     0
 77
     1
 78
     3
170
     0
171
     2
172
     1
173
     0
174
     1
175
     0
176
   133
177
   133
178
   150
270
     2
271
     3
272
     3
273
     2
274
     2
340
36
275
     0
280
     0
281
     0
282
     0
283
     1
284
     0
285
     0
286
     0
287
     4
288
     0
  0
DIMSTYLE
105
3B
330
A
100
AcDbSymbolTableRecord
100
AcDbDimStyleTableRecord
  2
1$7
 70
     0
  3

  4

  5

  6

  7

 40
1.0
 41
1.0
 42
0.5
 43
0.375
 44
1.19921875
 45
0.0
 46
0.5
 47
0.0
 48
0.0
140
0.75
141
0.125
142
0.0
143
25.4
144
1.0
145
0.0
146
0.8
147
0.5625
 71
     0
 72
     0
 73
     0
 74
     0
 75
     0
 76
     0
 77
     1
 78
     3
170
     0
171
     2
172
     1
173
     0
174
     1
175
     0
176
   133
177
   133
178
   150
270
     2
271
     3
272
     3
273
     2
274
     2
340
36
275
     0
280
     0
281
     0
282
     0
283
     1
284
     0
285
     0
286
     0
287
     4
288
     0
  0
ENDTAB
  0
TABLE
  2
BLOCK_RECORD
  5
1
330
0
100
AcDbSymbolTable
 70
     5
  0
BLOCK_RECORD
  5
1F
102
{ACAD_XDICTIONARY
360
39C
102
}
330
1
100
AcDbSymbolTableRecord
100
AcDbBlockTableRecord
  2
*MODEL_SPACE
  0
BLOCK_RECORD
  5
1B
102
{ACAD_XDICTIONARY
360
39A
102
}
330
1
100
AcDbSymbolTableRecord
100
AcDbBlockTableRecord
  2
*PAPER_SPACE
  0
BLOCK_RECORD
  5
2B
330
1
100
AcDbSymbolTableRecord
100
AcDbBlockTableRecord
  2
_DOT
  0
BLOCK_RECORD
  5
30
330
1
100
AcDbSymbolTableRecord
100
AcDbBlockTableRecord
  2
_DOTSMALL
  0
BLOCK_RECORD
  5
CE
330
1
100
AcDbSymbolTableRecord
100
AcDbBlockTableRecord
  2
*D3
  0
BLOCK_RECORD
  5
DC
330
1
100
AcDbSymbolTableRecord
100
AcDbBlockTableRecord
  2
*D4
  0
ENDTAB
  0
ENDSEC
  0
SECTION
  2
BLOCKS
  0
BLOCK
  5
20
330
1F
100
AcDbEntity
  8
0
100
AcDbBlockBegin
  2
*MODEL_SPACE
 70
     0
 10
0.0
 20
0.0
 30
0.0
  3
*MODEL_SPACE
  1

  0
ENDBLK
  5
21
330
1F
100
AcDbEntity
  8
0
100
AcDbBlockEnd
  0
BLOCK
  5
1C
330
1B
100
AcDbEntity
 67
     1
  8
0
100
AcDbBlockBegin
  2
*PAPER_SPACE
 70
     0
 10
0.0
 20
0.0
 30
0.0
  3
*PAPER_SPACE
  1

  0
ENDBLK
  5
1D
330
1B
100
AcDbEntity
 67
     1
  8
0
100
AcDbBlockEnd
  0
BLOCK
  5
2E
330
2B
100
AcDbEntity
  8
0
100
AcDbBlockBegin
  2
_DOT
 70
     0
 10
0.0
 20
0.0
 30
0.0
  3
_DOT
  1

  0
LWPOLYLINE
  5
2C
330
2B
100
AcDbEntity
  8
L
 62
     0
100
AcDbPolyline
 90
        2
 70
     1
 43
0.5
 10
-0.25
 20
0.0
 42
1.0
 10
0.25
 20
0.0
 42
1.0
  0
LINE
  5
2D
330
2B
100
AcDbEntity
  8
L
 62
     0
100
AcDbLine
 10
-0.5
 20
0.0
 30
0.0
 11
-1.0
 21
0.0
 31
0.0
  0
ENDBLK
  5
2F
330
2B
100
AcDbEntity
  8
0
100
AcDbBlockEnd
  0
BLOCK
  5
32
330
30
100
AcDbEntity
  8
0
 48
0.116666
100
AcDbBlockBegin
  2
_DOTSMALL
 70
     0
 10
0.0
 20
0.0
 30
0.0
  3
_DOTSMALL
  1

  0
LWPOLYLINE
  5
31
330
30
100
AcDbEntity
  8
0
  6
BYBLOCK
 62
     0
100
AcDbPolyline
 90
        2
 70
     1
 43
0.5
 10
-0.0625
 20
0.0
 42
1.0
 10
0.0625
 20
0.0
 42
1.0
  0
ENDBLK
  5
33
330
30
100
AcDbEntity
  8
0
 48
0.116666
100
AcDbBlockEnd
  0
BLOCK
  5
D9
330
CE
100
AcDbEntity
  8
0
100
AcDbBlockBegin
  2
*D3
 70
     1
 10
0.0
 20
0.0
 30
0.0
  3
*D3
  1

  0
LINE
  5
CF
330
CE
100
AcDbEntity
  8
0
 62
     0
100
AcDbLine
 10
-1198.083927361311
 20
-545.7907484618803
 30
0.0
 11
-1198.083927361311
 21
-544.1457451387792
 31
0.0
  0
LINE
  5
D0
330
CE
100
AcDbEntity
  8
0
 62
     0
100
AcDbLine
 10
-1189.333927361311
 20
-545.7907484618803
 30
0.0
 11
-1189.333927361311
 21
-544.1457451387792
 31
0.0
  0
LINE
  5
D1
330
CE
100
AcDbEntity
  8
0
 62
     0
100
AcDbLine
 10
-1197.903927361311
 20
-544.3257451387792
 30
0.0
 11
-1194.068927361311
 21
-544.3257451387792
 31
0.0
  0
LINE
  5
D2
330
CE
100
AcDbEntity
  8
0
 62
     0
100
AcDbLine
 10
-1189.513927361311
 20
-544.3257451387792
 30
0.0
 11
-1193.348927361311
 21
-544.3257451387792
 31
0.0
  0
SOLID
  5
D3
330
CE
100
AcDbEntity
  8
0
 62
     0
100
AcDbTrace
 10
-1197.903927361311
 20
-544.2957451387792
 30
0.0
 11
-1197.903927361311
 21
-544.3557451387792
 31
0.0
 12
-1198.083927361311
 22
-544.3257451387792
 32
0.0
 13
-1198.083927361311
 23
-544.3257451387792
 33
0.0
  0
SOLID
  5
D4
330
CE
100
AcDbEntity
  8
0
 62
     0
100
AcDbTrace
 10
-1189.513927361311
 20
-544.2957451387792
 30
0.0
 11
-1189.513927361311
 21
-544.3557451387792
 31
0.0
 12
-1189.333927361311
 22
-544.3257451387792
 32
0.0
 13
-1189.333927361311
 23
-544.3257451387792
 33
0.0
  0
MTEXT
  5
D5
330
CE
100
AcDbEntity
  8
0
 62
     0
100
AcDbMText
 10
-1193.708927361311
 20
-544.3257451387792
 30
0.0
 40
0.18
 41
0.0
 71
     5
 72
     1
  1
\A1;8.75
1001
ACAD
1000
MTEXTBEGIN
1070
    73
1070
     1
1070
    44
1040
1.0
1070
    74
1070
     0
1000
MTEXTEND
  0
POINT
  5
D6
330
CE
100
AcDbEntity
  8
DEFPOINTS
 62
     0
100
AcDbPoint
 10
-1198.083927361311
 20
-545.8532484618802
 30
0.0
  0
POINT
  5
D7
330
CE
100
AcDbEntity
  8
DEFPOINTS
 62
     0
100
AcDbPoint
 10
-1189.333927361311
 20
-545.8532484618802
 30
0.0
  0
POINT
  5
D8
330
CE
100
AcDbEntity
  8
DEFPOINTS
 62
     0
100
AcDbPoint
 10
-1189.333927361311
 20
-544.3257451387792
 30
0.0
  0
ENDBLK
  5
DA
330
CE
100
AcDbEntity
  8
0
100
AcDbBlockEnd
  0
BLOCK
  5
E7
330
DC
100
AcDbEntity
  8
0
100
AcDbBlockBegin
  2
*D4
 70
     1
 10
0.0
 20
0.0
 30
0.0
  3
*D4
  1

  0
LINE
  5
DD
330
DC
100
AcDbEntity
  8
0
 62
     0
100
AcDbLine
 10
-1197.506427361311
 20
-544.8227484618803
 30
0.0
 11
-1198.698637105473
 21
-544.8227484618803
 31
0.0
  0
LINE
  5
DE
330
DC
100
AcDbEntity
  8
0
 62
     0
100
AcDbLine
 10
-1197.901427361311
 20
-546.5227484618804
 30
0.0
 11
-1198.698637105473
 21
-546.5227484618804
 31
0.0
  0
LINE
  5
DF
330
DC
100
AcDbEntity
  8
0
 62
     0
100
AcDbLine
 10
-1198.518637105473
 20
-545.0027484618803
 30
0.0
 11
-1198.518637105473
 21
-545.4927484618804
 31
0.0
  0
LINE
  5
E0
330
DC
100
AcDbEntity
  8
0
 62
     0
100
AcDbLine
 10
-1198.518637105473
 20
-546.3427484618804
 30
0.0
 11
-1198.518637105473
 21
-545.8527484618802
 31
0.0
  0
SOLID
  5
E1
330
DC
100
AcDbEntity
  8
0
 62
     0
100
AcDbTrace
 10
-1198.548637105473
 20
-545.0027484618803
 30
0.0
 11
-1198.488637105473
 21
-545.0027484618803
 31
0.0
 12
-1198.518637105473
 22
-544.8227484618803
 32
0.0
 13
-1198.518637105473
 23
-544.8227484618803
 33
0.0
  0
SOLID
  5
E2
330
DC
100
AcDbEntity
  8
0
 62
     0
100
AcDbTrace
 10
-1198.548637105473
 20
-546.3427484618804
 30
0.0
 11
-1198.488637105473
 21
-546.3427484618804
 31
0.0
 12
-1198.518637105473
 22
-546.5227484618804
 32
0.0
 13
-1198.518637105473
 23
-546.5227484618804
 33
0.0
  0
MTEXT
  5
E3
330
DC
100
AcDbEntity
  8
0
 62
     0
100
AcDbMText
 10
-1198.518637105473
 20
-545.6727484618804
 30
0.0
 40
0.18
 41
0.0
 71
     5
 72
     1
  1
\A1;1.70
1001
ACAD
1000
MTEXTBEGIN
1070
    73
1070
     1
1070
    44
1040
1.0
1070
    74
1070
     0
1000
MTEXTEND
  0
POINT
  5
E4
330
DC
100
AcDbEntity
  8
DEFPOINTS
 62
     0
100
AcDbPoint
 10
-1197.443927361311
 20
-544.8227484618803
 30
0.0
  0
POINT
  5
E5
330
DC
100
AcDbEntity
  8
DEFPOINTS
 62
     0
100
AcDbPoint
 10
-1197.838927361311
 20
-546.5227484618804
 30
0.0
  0
POINT
  5
E6
330
DC
100
AcDbEntity
  8
DEFPOINTS
 62
     0
100
AcDbPoint
 10
-1198.518637105473
 20
-546.5227484618804
 30
0.0
  0
ENDBLK
  5
E8
330
DC
100
AcDbEntity
  8
0
100
AcDbBlockEnd
  0
ENDSEC
  0
SECTION
  2
ENTITIES
  0
TEXT
  5
BD
330
1F
100
AcDbEntity
  8
TX
 48
0.233332
100
AcDbText
 10
-1197.391279904437
 20
-547.3480784540933
 30
0.0
 40
0.09375
  1
SCALE : FULL SIZE
  7
REG
 11
-1197.391279904437
 21
-547.2543284540932
 31
0.0
100
AcDbText
 73
     3
  0
TEXT
  5
BE
330
1F
100
AcDbEntity
  8
L
 62
     3
 48
0.233332
100
AcDbText
 10
-1197.391279904437
 20
-547.0668567687313
 30
0.0
 40
0.140625
  1
MEDIUM BODY #2015
  7
REG
100
AcDbText
  0
LWPOLYLINE
  5
BF
330
1F
100
AcDbEntity
  8
L
 62
     5
 48
0.233332
100
AcDbPolyline
 90
        2
 70
     0
 43
0.028125
 10
-1197.485015747118
 20
-547.1605926114123
 10
-1194.903648290221
 20
-547.1605926114123
  0
DIMENSION
  5
CD
330
1F
100
AcDbEntity
  8
0
100
AcDbDimension
  2
*D3
 10
-1189.333927361311
 20
-544.3257451387792
 30
0.0
 11
-1193.708927361311
 21
-544.3257451387792
 31
0.0
 70
    32
  3
STANDARD
100
AcDbAlignedDimension
 13
-1198.083927361311
 23
-545.8532484618802
 33
0.0
 14
-1189.333927361311
 24
-545.8532484618802
 34
0.0
100
AcDbRotatedDimension
  0
DIMENSION
  5
DB
330
1F
100
AcDbEntity
  8
0
100
AcDbDimension
  2
*D4
 10
-1198.518637105473
 20
-546.5227484618804
 30
0.0
 11
-1198.518637105473
 21
-545.6727484618804
 31
0.0
 70
    32
  3
STANDARD
100
AcDbAlignedDimension
 13
-1197.443927361311
 23
-544.8227484618803
 33
0.0
 14
-1197.838927361311
 24
-546.5227484618804
 34
0.0
 50
90.0
100
AcDbRotatedDimension
  0
LWPOLYLINE
  5
234
330
1F
100
AcDbEntity
  8
L
 62
     5
100
AcDbPolyline
 90
      324
 70
     1
 43
0.0
 10
-1189.561046305766
 20
-546.0808741018879
 10
-1189.536808416856
 20
-546.0956228218727
 42
-0.5620869863792793
 10
-1189.536808416856
 20
-546.1058741018879
 10
-1189.561046305766
 20
-546.1206228218727
 42
0.5620869863760394
 10
-1189.561046305766
 20
-546.1308741018878
 10
-1189.536808416856
 20
-546.1456228218728
 42
-0.5620869863760391
 10
-1189.536808416856
 20
-546.1558741018879
 10
-1189.561046305766
 20
-546.1706228218728
 42
0.5620869863792799
 10
-1189.561046305766
 20
-546.1808741018879
 10
-1189.536808416856
 20
-546.1956228218728
 42
-0.5620869863792793
 10
-1189.536808416856
 20
-546.2058741018879
 10
-1189.561046305766
 20
-546.2206228218727
 42
0.5620869863792799
 10
-1189.561046305766
 20
-546.2308741018879
 10
-1189.536808416856
 20
-546.2456228218729
 42
-0.261783424788522
 10
-1189.533927361311
 20
-546.2507484618803
 10
-1189.533927361311
 20
-546.3577484618804
 42
-0.4142135623727033
 10
-1189.618927361311
 20
-546.4427484618803
 10
-1189.698927361311
 20
-546.4427484618803
 42
-0.4142135623730951
 10
-1189.783927361311
 20
-546.3577484618804
 10
-1189.783927361311
 20
-546.2257484618803
 42
-0.2617834247897967
 10
-1189.781046305766
 20
-546.2206228218727
 10
-1189.756808416856
 20
-546.2058741018879
 42
0.5620869863792796
 10
-1189.756808416856
 20
-546.1956228218728
 10
-1189.781046305766
 20
-546.1808741018879
 42
-0.5620869863792799
 10
-1189.781046305766
 20
-546.1706228218728
 10
-1189.756808416856
 20
-546.155874101888
 42
0.5620869863760391
 10
-1189.756808416856
 20
-546.1456228218728
 10
-1189.781046305766
 20
-546.1308741018878
 42
-0.5620869863760394
 10
-1189.781046305766
 20
-546.1206228218729
 10
-1189.756808416856
 20
-546.1058741018879
 42
0.5620869863792796
 10
-1189.756808416856
 20
-546.0956228218727
 10
-1189.781046305766
 20
-546.0808741018879
 42
-0.5620869863792799
 10
-1189.781046305766
 20
-546.0706228218728
 10
-1189.756808416856
 20
-546.0558741018879
 42
0.5620869863792796
 10
-1189.756808416856
 20
-546.0456228218728
 10
-1189.781046305766
 20
-546.030874101888
 42
-0.5620869863760394
 10
-1189.781046305766
 20
-546.0206228218728
 10
-1189.756808416856
 20
-546.0058741018879
 42
0.5620869863760394
 10
-1189.756808416856
 20
-545.9956228218728
 10
-1189.781046305766
 20
-545.9808741018879
 42
-0.5620869863792799
 10
-1189.781046305766
 20
-545.9706228218728
 10
-1189.756808416856
 20
-545.9558741018879
 42
0.5620869863792796
 10
-1189.756808416856
 20
-545.9456228218727
 10
-1189.781046305766
 20
-545.930874101888
 42
-0.5620869863792799
 10
-1189.781046305766
 20
-545.9206228218728
 10
-1189.756808416856
 20
-545.9058741018879
 42
0.5620869863760391
 10
-1189.756808416856
 20
-545.8956228218728
 10
-1189.781046305766
 20
-545.8808741018879
 42
-0.5620869863760394
 10
-1189.781046305766
 20
-545.8706228218728
 10
-1189.755586075762
 20
-545.8551303091183
 42
0.4860029169818084
 10
-1189.754939128436
 20
-545.8497366947546
 10
-1189.783927361311
 20
-545.8207484618803
 10
-1189.83192736131
 20
-545.8207484618803
 42
0.4142135623730951
 10
-1189.863927361311
 20
-545.8527484618804
 10
-1189.863927361311
 20
-546.3577484618804
 42
-1.000000000000003
 10
-1190.033927361311
 20
-546.3577484618804
 10
-1190.03392736131
 20
-545.7852361085801
 42
0.3393757862626131
 10
-1190.05763645222
 20
-545.7543288145147
 42
-0.8768519866366716
 10
-1190.008927361311
 20
-545.3847484618803
 10
-1189.990927361311
 20
-545.3847484618803
 42
0.4142135623730951
 10
-1189.958927361311
 20
-545.3527484618803
 10
-1189.958927361311
 20
-544.8377484618803
 42
0.4142135623730951
 10
-1189.973927361311
 20
-544.8227484618803
 10
-1197.443927361311
 20
-544.8227484618803
 42
0.414213562375315
 10
-1197.458927361311
 20
-544.8377484618803
 10
-1197.458927361311
 20
-545.3527484618803
 42
0.4142135623720546
 10
-1197.426927361311
 20
-545.3847484618803
 10
-1197.408927361311
 20
-545.3847484618803
 42
-0.8768519866361367
 10
-1197.360218270402
 20
-545.7543288145147
 42
0.3393757862614337
 10
-1197.383927361311
 20
-545.7852361085801
 10
-1197.383927361311
 20
-546.3577484618804
 42
-1.000000000000003
 10
-1197.553927361311
 20
-546.3577484618804
 10
-1197.553927361311
 20
-545.8527484618804
 42
0.4142135623720546
 10
-1197.585927361311
 20
-545.8207484618803
 10
-1197.633927361311
 20
-545.8207484618803
 10
-1197.662915594185
 20
-545.8497366947544
 42
0.4860029170135704
 10
-1197.66226864686
 20
-545.8551303091184
 10
-1197.636808416856
 20
-545.8706228218727
 42
-0.5620869863760394
 10
-1197.636808416856
 20
-545.8808741018879
 10
-1197.661046305766
 20
-545.8956228218728
 42
0.5620869863760394
 10
-1197.661046305766
 20
-545.9058741018878
 10
-1197.636808416856
 20
-545.9206228218728
 42
-0.5620869863792796
 10
-1197.636808416856
 20
-545.930874101888
 10
-1197.661046305766
 20
-545.9456228218727
 42
0.5620869863792799
 10
-1197.661046305766
 20
-545.9558741018879
 10
-1197.636808416856
 20
-545.9706228218728
 42
-0.5620869863792796
 10
-1197.636808416856
 20
-545.9808741018879
 10
-1197.661046305766
 20
-545.9956228218727
 42
0.5620869863760394
 10
-1197.661046305766
 20
-546.0058741018879
 10
-1197.636808416856
 20
-546.0206228218728
 42
-0.5620869863760391
 10
-1197.636808416856
 20
-546.0308741018878
 10
-1197.661046305766
 20
-546.0456228218728
 42
0.5620869863792799
 10
-1197.661046305766
 20
-546.0558741018879
 10
-1197.636808416856
 20
-546.0706228218728
 42
-0.5620869863792796
 10
-1197.636808416856
 20
-546.0808741018879
 10
-1197.661046305766
 20
-546.0956228218727
 42
0.5620869863792799
 10
-1197.661046305766
 20
-546.1058741018879
 10
-1197.636808416856
 20
-546.1206228218727
 42
-0.5620869863760394
 10
-1197.636808416856
 20
-546.1308741018878
 10
-1197.661046305766
 20
-546.1456228218728
 42
0.5620869863760394
 10
-1197.661046305766
 20
-546.1558741018879
 10
-1197.636808416856
 20
-546.1706228218728
 42
-0.5620869863792796
 10
-1197.636808416856
 20
-546.1808741018879
 10
-1197.661046305766
 20
-546.1956228218728
 42
0.5620869863792799
 10
-1197.661046305766
 20
-546.2058741018879
 10
-1197.636808416856
 20
-546.2206228218727
 42
-0.2617834247897965
 10
-1197.633927361311
 20
-546.2257484618803
 10
-1197.633927361311
 20
-546.3577484618804
 42
-0.4142135623727033
 10
-1197.718927361311
 20
-546.4427484618803
 10
-1197.798927361311
 20
-546.4427484618802
 42
-0.4142135623727035
 10
-1197.883927361311
 20
-546.3577484618804
 10
-1197.883927361311
 20
-546.2507484618803
 42
-0.2617834247933831
 10
-1197.881046305766
 20
-546.2456228218728
 10
-1197.856808416856
 20
-546.2308741018879
 42
0.5620869863792796
 10
-1197.856808416856
 20
-546.2206228218727
 10
-1197.881046305766
 20
-546.2058741018879
 42
-0.5620869863792799
 10
-1197.881046305766
 20
-546.1956228218728
 10
-1197.856808416856
 20
-546.1808741018879
 42
0.5620869863792796
 10
-1197.856808416856
 20
-546.1706228218728
 10
-1197.881046305766
 20
-546.155874101888
 42
-0.5620869863760394
 10
-1197.881046305766
 20
-546.1456228218728
 10
-1197.856808416856
 20
-546.1308741018878
 42
0.5620869863760394
 10
-1197.856808416856
 20
-546.1206228218729
 10
-1197.881046305766
 20
-546.1058741018879
 42
-0.5620869863792799
 10
-1197.881046305766
 20
-546.0956228218727
 10
-1197.856808416856
 20
-546.0808741018879
 42
0.5620869863792796
 10
-1197.856808416856
 20
-546.0706228218728
 10
-1197.881046305766
 20
-546.0558741018879
 42
-0.5620869863792799
 10
-1197.881046305766
 20
-546.0456228218728
 10
-1197.856808416856
 20
-546.030874101888
 42
0.5620869863760391
 10
-1197.856808416856
 20
-546.0206228218728
 10
-1197.881046305766
 20
-546.0058741018879
 42
-0.5620869863760394
 10
-1197.881046305766
 20
-545.9956228218728
 10
-1197.856808416856
 20
-545.9808741018879
 42
0.5620869863792796
 10
-1197.856808416856
 20
-545.9706228218728
 10
-1197.881046305766
 20
-545.9558741018879
 42
-0.5620869863792799
 10
-1197.881046305766
 20
-545.9456228218727
 10
-1197.856808416856
 20
-545.930874101888
 42
0.5620869863792796
 10
-1197.856808416856
 20
-545.9206228218728
 10
-1197.881046305766
 20
-545.9058741018879
 42
-0.5620869863760394
 10
-1197.881046305766
 20
-545.8956228218728
 10
-1197.856808416856
 20
-545.8808741018879
 42
0.5620869863760394
 10
-1197.856808416856
 20
-545.8706228218728
 10
-1197.881046305766
 20
-545.8558741018879
 42
-0.2617834247897967
 10
-1197.883927361311
 20
-545.8507484618803
 10
-1197.883927361311
 20
-545.8357484618804
 42
0.4142135623730951
 10
-1197.898927361311
 20
-545.8207484618803
 10
-1198.051427361311
 20
-545.8207484618803
 42
1.000000000000003
 10
-1198.051427361311
 20
-545.8857484618802
 10
-1198.025927361311
 20
-545.8857484618802
 42
-0.4142135623741691
 10
-1197.963927361311
 20
-545.9477484618803
 10
-1197.963927361311
 20
-546.2457484618803
 42
-0.4142135623730951
 10
-1197.978927361311
 20
-546.2607484618803
 10
-1198.053927361311
 20
-546.2607484618802
 42
1.000000000000003
 10
-1198.053927361311
 20
-546.3207484618804
 10
-1197.978927361311
 20
-546.3207484618805
 42
-0.4142135623708753
 10
-1197.963927361311
 20
-546.3357484618803
 10
-1197.963927361311
 20
-546.3977484618803
 42
0.4142135623730951
 10
-1197.838927361311
 20
-546.5227484618804
 10
-1197.418927361311
 20
-546.5227484618804
 42
0.4142135623730951
 10
-1197.293927361311
 20
-546.3977484618803
 10
-1197.293927361311
 20
-546.2217484618803
 42
-0.414213562372558
 10
-1197.231927361311
 20
-546.1597484618803
 10
-1196.615927361311
 20
-546.1597484618803
 10
-1196.605927361311
 20
-546.1497484618803
 10
-1196.595927361311
 20
-546.1597484618803
 10
-1196.355927361311
 20
-546.1597484618803
 42
0.4142135623730951
 10
-1196.293927361311
 20
-546.0977484618804
 10
-1196.293927361311
 20
-546.0017484618804
 42
0.4142135623730951
 10
-1196.325927361311
 20
-545.9697484618803
 10
-1196.361927361311
 20
-545.9697484618804
 42
0.4142135623730951
 10
-1196.393927361311
 20
-546.0017484618804
 10
-1196.393927361311
 20
-546.0277484618804
 42
-0.4142135623741354
 10
-1196.425927361311
 20
-546.0597484618804
 10
-1196.761927361311
 20
-546.0597484618804
 42
-0.4142135623730951
 10
-1196.793927361311
 20
-546.0277484618804
 10
-1196.793927361311
 20
-545.9947484618803
 42
1.000000000000003
 10
-1196.843927361311
 20
-545.9947484618803
 10
-1196.843927361311
 20
-546.0277484618804
 42
-0.4142135623720542
 10
-1196.875927361311
 20
-546.0597484618804
 10
-1197.231927361311
 20
-546.0597484618804
 42
-0.4142135623725581
 10
-1197.293927361311
 20
-545.9977484618804
 10
-1197.293927361311
 20
-545.863043139751
 42
-0.2615444197931621
 10
-1197.264203831899
 20
-545.8101070514334
 42
0.1043853303382477
 10
-1197.180623669013
 20
-545.7313719912921
 42
-0.2456640164004944
 10
-1197.129707018212
 20
-545.7047484618803
 10
-1197.050927361311
 20
-545.7047484618804
 42
0.4142135623741354
 10
-1197.018927361311
 20
-545.6727484618803
 10
-1197.018927361311
 20
-545.6297484618803
 42
0.4142135623730951
 10
-1197.050927361311
 20
-545.5977484618804
 10
-1197.116098059498
 20
-545.5977484618804
 42
-0.4242475728074659
 10
-1197.131089320683
 20
-545.5822365164879
 42
0.060165785734605
 10
-1197.136818622914
 20
-545.5158201342353
 42
-0.4759931499287762
 10
-1197.122136496742
 20
-545.4977484618804
 10
-1197.043927361311
 20
-545.4977484618803
 42
1.000000000000003
 10
-1197.043927361311
 20
-545.4477484618803
 10
-1197.124971378807
 20
-545.4477484618803
 42
-0.2522636525026526
 10
-1197.176751587381
 20
-545.4198484618804
 42
0.108059368819834
 10
-1197.261760732312
 20
-545.3368968489772
 42
-0.7538049545980274
 10
-1197.244820688686
 20
-545.2777484618803
 10
-1197.243221850094
 20
-545.2775899939691
 42
0.9517851366109411
 10
-1197.246427361311
 20
-545.2127484618803
 10
-1197.363927361311
 20
-545.2127484618804
 42
-0.4142135623753151
 10
-1197.378927361311
 20
-545.1977484618803
 10
-1197.37892736131
 20
-544.9497484618803
 42
-0.4142135623720546
 10
-1197.346927361311
 20
-544.9177484618803
 10
-1196.693927361311
 20
-544.9177484618803
 42
-0.4142135623730951
 10
-1196.678927361311
 20
-544.9327484618804
 10
-1196.678927361311
 20
-544.9377484618803
 42
0.4142135623664355
 10
-1196.668927361311
 20
-544.9477484618803
 10
-1196.518927361311
 20
-544.9477484618803
 42
0.4142135623664355
 10
-1196.508927361311
 20
-544.9377484618803
 10
-1196.508927361311
 20
-544.9327484618804
 42
-0.4142135623708753
 10
-1196.493927361311
 20
-544.9177484618803
 10
-1194.218927361311
 20
-544.9177484618803
 10
-1194.208927361311
 20
-544.9077484618803
 10
-1194.198927361311
 20
-544.9177484618803
 10
-1193.808927361311
 20
-544.9177484618803
 42
-0.4142135623730951
 10
-1193.793927361311
 20
-544.9327484618804
 10
-1193.793927361311
 20
-544.9377484618803
 42
0.414213562376425
 10
-1193.783927361311
 20
-544.9477484618803
 10
-1193.633927361311
 20
-544.9477484618803
 42
0.4142135623730951
 10
-1193.623927361311
 20
-544.9377484618803
 10
-1193.623927361311
 20
-544.9327484618804
 42
-0.4142135623753151
 10
-1193.608927361311
 20
-544.9177484618803
 10
-1193.218927361311
 20
-544.9177484618803
 10
-1193.208927361311
 20
-544.9077484618803
 10
-1193.198927361311
 20
-544.9177484618803
 10
-1190.923927361311
 20
-544.9177484618805
 42
-0.4142135623753149
 10
-1190.908927361311
 20
-544.9327484618804
 10
-1190.908927361311
 20
-544.9377484618803
 42
0.4142135623797547
 10
-1190.898927361311
 20
-544.9477484618803
 10
-1190.748927361311
 20
-544.9477484618803
 42
0.4142135623730951
 10
-1190.738927361311
 20
-544.9377484618803
 10
-1190.738927361311
 20
-544.9327484618804
 42
-0.4142135623708753
 10
-1190.723927361311
 20
-544.9177484618803
 10
-1190.080927361311
 20
-544.9177484618803
 42
-0.4142135623720546
 10
-1190.048927361311
 20
-544.9497484618803
 10
-1190.048927361311
 20
-545.1977484618803
 42
-0.4142135623730951
 10
-1190.063927361311
 20
-545.2127484618803
 10
-1190.171427361311
 20
-545.2127484618804
 42
0.9517851366042901
 10
-1190.174632872527
 20
-545.277589993969
 10
-1190.173034033936
 20
-545.2777484618803
 42
-0.7538049545980278
 10
-1190.15609399031
 20
-545.336896848977
 42
0.108059368819883
 10
-1190.241103135241
 20
-545.4198484618804
 42
-0.2522636525024921
 10
-1190.292883343815
 20
-545.4477484618803
 10
-1190.373927361311
 20
-545.4477484618803
 42
1.000000000000003
 10
-1190.373927361311
 20
-545.4977484618804
 10
-1190.295718225879
 20
-545.4977484618803
 42
-0.4759931499287762
 10
-1190.281036099707
 20
-545.5158201342353
 42
0.0601657857346049
 10
-1190.286765401939
 20
-545.5822365164879
 42
-0.4242475728028417
 10
-1190.301756663123
 20
-545.5977484618804
 10
-1190.366927361311
 20
-545.5977484618804
 42
0.414213562371014
 10
-1190.398927361311
 20
-545.6297484618803
 10
-1190.39892736131
 20
-545.6727484618803
 42
0.4142135623720546
 10
-1190.366927361311
 20
-545.7047484618803
 10
-1190.288147704409
 20
-545.7047484618804
 42
-0.2456640164003388
 10
-1190.237231053609
 20
-545.7313719912921
 42
0.1043853303382999
 10
-1190.153650890722
 20
-545.8101070514333
 42
-0.2615444197936316
 10
-1190.123927361311
 20
-545.863043139751
 10
-1190.123927361311
 20
-545.9977484618804
 42
-0.4142135623730951
 10
-1190.185927361311
 20
-546.0597484618804
 10
-1190.541927361311
 20
-546.0597484618804
 42
-0.4142135623730951
 10
-1190.573927361311
 20
-546.0277484618804
 10
-1190.573927361311
 20
-545.9947484618803
 42
1.000000000000003
 10
-1190.623927361311
 20
-545.9947484618803
 10
-1190.623927361311
 20
-546.0277484618804
 42
-0.4142135623741354
 10
-1190.655927361311
 20
-546.0597484618804
 10
-1190.991927361311
 20
-546.0597484618804
 42
-0.4142135623720546
 10
-1191.023927361311
 20
-546.0277484618804
 10
-1191.023927361311
 20
-546.0017484618804
 42
0.4142135623720546
 10
-1191.055927361311
 20
-545.9697484618803
 10
-1191.091927361311
 20
-545.9697484618804
 42
0.4142135623730951
 10
-1191.123927361311
 20
-546.0017484618804
 10
-1191.123927361311
 20
-546.0977484618804
 42
0.4142135623725579
 10
-1191.061927361311
 20
-546.1597484618803
 10
-1190.821927361311
 20
-546.1597484618803
 10
-1190.811927361311
 20
-546.1497484618803
 10
-1190.801927361311
 20
-546.1597484618803
 10
-1190.138927361311
 20
-546.1597484618803
 42
-0.414213562370875
 10
-1190.123927361311
 20
-546.1747484618804
 10
-1190.123927361311
 20
-546.2347484618804
 42
-0.4142135623753151
 10
-1190.138927361311
 20
-546.2497484618803
 10
-1190.233927361311
 20
-546.2497484618802
 42
0.4142135623775348
 10
-1190.248927361311
 20
-546.2647484618803
 10
-1190.248927361311
 20
-546.2947484618804
 42
0.4142135623753147
 10
-1190.233927361311
 20
-546.3097484618804
 10
-1190.138927361311
 20
-546.3097484618805
 42
-0.4142135623730951
 10
-1190.123927361311
 20
-546.3247484618803
 10
-1190.123927361311
 20
-546.3977484618803
 42
0.4142135623730951
 10
-1189.998927361311
 20
-546.5227484618804
 10
-1189.578927361311
 20
-546.5227484618804
 42
0.4142135623730951
 10
-1189.453927361311
 20
-546.3977484618803
 10
-1189.453927361311
 20
-546.3357484618803
 42
-0.4142135623730951
 10
-1189.438927361311
 20
-546.3207484618804
 10
-1189.363927361311
 20
-546.3207484618804
 42
1.000000000000003
 10
-1189.363927361311
 20
-546.2607484618803
 10
-1189.438927361311
 20
-546.2607484618803
 42
-0.4142135623753149
 10
-1189.453927361311
 20
-546.2457484618803
 10
-1189.453927361311
 20
-545.9477484618803
 42
-0.414213562373632
 10
-1189.391927361311
 20
-545.8857484618802
 10
-1189.366427361311
 20
-545.8857484618802
 42
1.000000000000003
 10
-1189.366427361311
 20
-545.8207484618803
 10
-1189.518927361311
 20
-545.8207484618805
 42
0.4142135623730951
 10
-1189.533927361311
 20
-545.8357484618804
 10
-1189.533927361311
 20
-545.8507484618803
 42
-0.2617834247849356
 10
-1189.536808416856
 20
-545.8558741018879
 10
-1189.561046305766
 20
-545.8706228218727
 42
0.5620869863760394
 10
-1189.561046305766
 20
-545.8808741018879
 10
-1189.536808416856
 20
-545.8956228218728
 42
-0.5620869863760391
 10
-1189.536808416856
 20
-545.9058741018878
 10
-1189.561046305766
 20
-545.9206228218728
 42
0.5620869863792799
 10
-1189.561046305766
 20
-545.930874101888
 10
-1189.536808416856
 20
-545.9456228218727
 42
-0.5620869863792793
 10
-1189.536808416856
 20
-545.9558741018879
 10
-1189.561046305766
 20
-545.9706228218728
 42
0.5620869863792799
 10
-1189.561046305766
 20
-545.9808741018879
 10
-1189.536808416856
 20
-545.9956228218727
 42
-0.5620869863760394
 10
-1189.536808416856
 20
-546.0058741018879
 10
-1189.561046305766
 20
-546.0206228218728
 42
0.5620869863760394
 10
-1189.561046305766
 20
-546.0308741018878
 10
-1189.536808416856
 20
-546.0456228218728
 42
-0.5620869863792793
 10
-1189.536808416856
 20
-546.0558741018879
 10
-1189.561046305766
 20
-546.0706228218728
 42
0.5620869863792799
  0
ENDSEC
  0
SECTION
  2
OBJECTS
  0
DICTIONARY
  5
C
330
0
100
AcDbDictionary
  3
ACAD_GROUP
350
D
  3
ACAD_LAYOUT
350
1A
  3
ACAD_MLINESTYLE
350
17
  3
ACAD_PLOTSETTINGS
350
19
  3
ACAD_PLOTSTYLENAME
350
E
  3
ACDBHEADERROUNDTRIPXREC
350
37A
  0
DICTIONARY
  5
39C
330
1F
100
AcDbDictionary
280
     1
  3
ACAD_LAYOUTSELFREF
360
39D
  0
DICTIONARY
  5
39A
330
1B
100
AcDbDictionary
280
     1
  3
ACAD_LAYOUTSELFREF
360
39B
  0
DICTIONARY
  5
D
102
{ACAD_REACTORS
330
C
102
}
330
C
100
AcDbDictionary
  0
DICTIONARY
  5
1A
102
{ACAD_REACTORS
330
C
102
}
330
C
100
AcDbDictionary
  0
DICTIONARY
  5
17
102
{ACAD_REACTORS
330
C
102
}
330
C
100
AcDbDictionary
  3
STANDARD
350
18
  0
DICTIONARY
  5
19
102
{ACAD_REACTORS
330
C
102
}
330
C
100
AcDbDictionary
  0
ACDBDICTIONARYWDFLT
  5
E
102
{ACAD_REACTORS
330
C
102
}
330
C
100
AcDbDictionary
281
     1
  3
Normal
350
F
100
AcDbDictionaryWithDefault
340
F
  0
DICTIONARY
  5
37A
102
{ACAD_REACTORS
330
C
102
}
330
C
100
AcDbDictionary
  3
CEPSNTYPE
350
384
  3
FINGERPRINTGUID
350
385
  3
HYPERLINKBASE
350
37D
  3
INSUNITS
350
383
  3
LAYOUTDICT
350
37F
  3
LWETCUNION
350
382
  3
PLOTSETDICT
350
380
  3
PLOTSTYLNAMDICT
350
381
  3
PSVPSCALE
350
387
  3
PUCSBASE
350
38A
  3
PUCSORGBACK
350
390
  3
PUCSORGBOTTOM
350
38C
  3
PUCSORGFRONT
350
38F
  3
PUCSORGLEFT
350
38D
  3
PUCSORGRIGHT
350
38E
  3
PUCSORGTOP
350
38B
  3
PUCSORTHOREF
350
388
  3
PUCSORTHOVIEW
350
389
  3
STYLESHEET
350
37E
  3
TSTACKALIGN
350
37B
  3
TSTACKSIZE
350
37C
  3
UCSBASE
350
393
  3
UCSORGBACK
350
399
  3
UCSORGBOTTOM
350
395
  3
UCSORGFRONT
350
398
  3
UCSORGLEFT
350
396
  3
UCSORGRIGHT
350
397
  3
UCSORGTOP
350
394
  3
UCSORTHOREF
350
391
  3
UCSORTHOVIEW
350
392
  3
VERSIONGUID
350
386
  0
XRECORD
  5
39D
102
{ACAD_REACTORS
330
39C
102
}
330
39C
100
AcDbXrecord
340
1F
  0
XRECORD
  5
39B
102
{ACAD_REACTORS
330
39A
102
}
330
39A
100
AcDbXrecord
340
1B
  0
MLINESTYLE
  5
18
102
{ACAD_REACTORS
330
17
102
}
330
17
100
AcDbMlineStyle
  2
STANDARD
 70
     0
  3

 62
   256
 51
90.0
 52
90.0
 71
     2
 49
0.5
 62
   256
  6
BYLAYER
 49
-0.5
 62
   256
  6
BYLAYER
  0
ACDBPLACEHOLDER
  5
F
102
{ACAD_REACTORS
330
E
102
}
330
E
100
AcDbPlaceHolder
280
     0
  0
XRECORD
  5
384
102
{ACAD_REACTORS
330
37A
102
}
330
37A
100
AcDbXrecord
 90
        0
  0
XRECORD
  5
385
102
{ACAD_REACTORS
330
37A
102
}
330
37A
100
AcDbXrecord
  1
{DC175E3D-AE85-11D5-9A93-0040C77E826B}
  0
XRECORD
  5
37D
102
{ACAD_REACTORS
330
37A
102
}
330
37A
100
AcDbXrecord
  1

  0
XRECORD
  5
383
102
{ACAD_REACTORS
330
37A
102
}
330
37A
100
AcDbXrecord
 90
        1
  0
XRECORD
  5
37F
102
{ACAD_REACTORS
330
37A
102
}
330
37A
100
AcDbXrecord
340
1A
  0
XRECORD
  5
382
102
{ACAD_REACTORS
330
37A
102
}
330
37A
100
AcDbXrecord
 90
    10781
  0
XRECORD
  5
380
102
{ACAD_REACTORS
330
37A
102
}
330
37A
100
AcDbXrecord
340
19
  0
XRECORD
  5
381
102
{ACAD_REACTORS
330
37A
102
}
330
37A
100
AcDbXrecord
340
E
  0
XRECORD
  5
387
102
{ACAD_REACTORS
330
37A
102
}
330
37A
100
AcDbXrecord
 40
0.0
  0
XRECORD
  5
38A
102
{ACAD_REACTORS
330
37A
102
}
330
37A
100
AcDbXrecord
340
0
  0
XRECORD
  5
390
102
{ACAD_REACTORS
330
37A
102
}
330
37A
100
AcDbXrecord
 10
0.0
 20
0.0
 30
0.0
  0
XRECORD
  5
38C
102
{ACAD_REACTORS
330
37A
102
}
330
37A
100
AcDbXrecord
 10
0.0
 20
0.0
 30
0.0
  0
XRECORD
  5
38F
102
{ACAD_REACTORS
330
37A
102
}
330
37A
100
AcDbXrecord
 10
0.0
 20
0.0
 30
0.0
  0
XRECORD
  5
38D
102
{ACAD_REACTORS
330
37A
102
}
330
37A
100
AcDbXrecord
 10
0.0
 20
0.0
 30
0.0
  0
XRECORD
  5
38E
102
{ACAD_REACTORS
330
37A
102
}
330
37A
100
AcDbXrecord
 10
0.0
 20
0.0
 30
0.0
  0
XRECORD
  5
38B
102
{ACAD_REACTORS
330
37A
102
}
330
37A
100
AcDbXrecord
 10
0.0
 20
0.0
 30
0.0
  0
XRECORD
  5
388
102
{ACAD_REACTORS
330
37A
102
}
330
37A
100
AcDbXrecord
340
0
  0
XRECORD
  5
389
102
{ACAD_REACTORS
330
37A
102
}
330
37A
100
AcDbXrecord
 70
     0
  0
XRECORD
  5
37E
102
{ACAD_REACTORS
330
37A
102
}
330
37A
100
AcDbXrecord
  1

  0
XRECORD
  5
37B
102
{ACAD_REACTORS
330
37A
102
}
330
37A
100
AcDbXrecord
 90
        1
  0
XRECORD
  5
37C
102
{ACAD_REACTORS
330
37A
102
}
330
37A
100
AcDbXrecord
 90
       70
  0
XRECORD
  5
393
102
{ACAD_REACTORS
330
37A
102
}
330
37A
100
AcDbXrecord
340
0
  0
XRECORD
  5
399
102
{ACAD_REACTORS
330
37A
102
}
330
37A
100
AcDbXrecord
 10
0.0
 20
0.0
 30
0.0
  0
XRECORD
  5
395
102
{ACAD_REACTORS
330
37A
102
}
330
37A
100
AcDbXrecord
 10
0.0
 20
0.0
 30
0.0
  0
XRECORD
  5
398
102
{ACAD_REACTORS
330
37A
102
}
330
37A
100
AcDbXrecord
 10
0.0
 20
0.0
 30
0.0
  0
XRECORD
  5
396
102
{ACAD_REACTORS
330
37A
102
}
330
37A
100
AcDbXrecord
 10
0.0
 20
0.0
 30
0.0
  0
XRECORD
  5
397
102
{ACAD_REACTORS
330
37A
102
}
330
37A
100
AcDbXrecord
 10
0.0
 20
0.0
 30
0.0
  0
XRECORD
  5
394
102
{ACAD_REACTORS
330
37A
102
}
330
37A
100
AcDbXrecord
 10
0.0
 20
0.0
 30
0.0
  0
XRECORD
  5
391
102
{ACAD_REACTORS
330
37A
102
}
330
37A
100
AcDbXrecord
340
0
  0
XRECORD
  5
392
102
{ACAD_REACTORS
330
37A
102
}
330
37A
100
AcDbXrecord
 70
     0
  0
XRECORD
  5
386
102
{ACAD_REACTORS
330
37A
102
}
330
37A
100
AcDbXrecord
  1
{A338411F-6828-4AE2-BAEF-34E82590A6E4}
  0
ENDSEC
  0
EOF
